norsk
☰ kategorier ☆☆☆ ◴Nye filmer
Share twitter

Handjob & footjob cumshot samling del 1 av 2

MetaData[+]

[STREAM]
index=0
codec_name=h264
codec_long_name=H.264 / AVC / MPEG-4 AVC / MPEG-4 part 10
profile=Constrained Baseline
codec_type=video
codec_time_base=1001/60000
codec_tag_string=avc1
codec_tag=0x31637661
width=426
height=238
coded_width=426
coded_height=238
has_b_frames=0
sample_aspect_ratio=1:1
display_aspect_ratio=213:119
pix_fmt=yuv420p
level=31
color_range=N/A
color_space=unknown
color_transfer=unknown
color_primaries=unknown
chroma_location=left
timecode=N/A
refs=1
is_avc=true
nal_length_size=4
id=N/A
r_frame_rate=30000/1001
avg_frame_rate=30000/1001
time_base=1/30000
start_pts=1001
start_time=0.033367
duration_ts=19581562
duration=652.718733
bit_rate=511872
max_bit_rate=N/A
bits_per_raw_sample=8
nb_frames=19562
nb_read_frames=N/A
nb_read_packets=N/A
DISPOSITION:default=1
DISPOSITION:dub=0
DISPOSITION:original=0
DISPOSITION:comment=0
DISPOSITION:lyrics=0
DISPOSITION:karaoke=0
DISPOSITION:forced=0
DISPOSITION:hearing_impaired=0
DISPOSITION:visual_impaired=0
DISPOSITION:clean_effects=0
DISPOSITION:attached_pic=0
TAG:creation_time=1970-01-01 00:00:00
TAG:language=eng
TAG:handler_name=VideoHandler
[/STREAM]
[STREAM]
index=1
codec_name=aac
codec_long_name=AAC (Advanced Audio Coding)
profile=LC
codec_type=audio
codec_time_base=1/48000
codec_tag_string=mp4a
codec_tag=0x6134706d
sample_fmt=fltp
sample_rate=48000
channels=2
channel_layout=stereo
bits_per_sample=0
id=N/A
r_frame_rate=0/0
avg_frame_rate=0/0
time_base=1/48000
start_pts=0
start_time=0.000000
duration_ts=31333376
duration=652.778667
bit_rate=63917
max_bit_rate=N/A
bits_per_raw_sample=N/A
nb_frames=30599
nb_read_frames=N/A
nb_read_packets=N/A
DISPOSITION:default=1
DISPOSITION:dub=0
DISPOSITION:original=0
DISPOSITION:comment=0
DISPOSITION:lyrics=0
DISPOSITION:karaoke=0
DISPOSITION:forced=0
DISPOSITION:hearing_impaired=0
DISPOSITION:visual_impaired=0
DISPOSITION:clean_effects=0
DISPOSITION:attached_pic=0
TAG:creation_time=1970-01-01 00:00:00
TAG:language=eng
TAG:handler_name=SoundHandler
[/STREAM]
[STREAM]
index=2
codec_name=unknown
codec_long_name=unknown
profile=unknown
codec_type=data
codec_tag_string=rtp
codec_tag=0x20707472
id=N/A
r_frame_rate=0/0
avg_frame_rate=0/0
time_base=1/90000
start_pts=0
start_time=0.000000
duration_ts=58755780
duration=652.842000
bit_rate=29435
max_bit_rate=N/A
bits_per_raw_sample=N/A
nb_frames=19562
nb_read_frames=N/A
nb_read_packets=N/A
DISPOSITION:default=1
DISPOSITION:dub=0
DISPOSITION:original=0
DISPOSITION:comment=0
DISPOSITION:lyrics=0
DISPOSITION:karaoke=0
DISPOSITION:forced=0
DISPOSITION:hearing_impaired=0
DISPOSITION:visual_impaired=0
DISPOSITION:clean_effects=0
DISPOSITION:attached_pic=0
TAG:creation_time=2014-09-01 19:26:28
TAG:language=und
TAG:handler_name=GPAC ISO Hint Handler
[/STREAM]
[STREAM]
index=3
codec_name=unknown
codec_long_name=unknown
profile=unknown
codec_type=data
codec_tag_string=rtp
codec_tag=0x20707472
id=N/A
r_frame_rate=0/0
avg_frame_rate=0/0
time_base=1/48000
start_pts=0
start_time=0.000000
duration_ts=31336416
duration=652.842000
bit_rate=8233
max_bit_rate=N/A
bits_per_raw_sample=N/A
nb_frames=3914
nb_read_frames=N/A
nb_read_packets=N/A
DISPOSITION:default=1
DISPOSITION:dub=0
DISPOSITION:original=0
DISPOSITION:comment=0
DISPOSITION:lyrics=0
DISPOSITION:karaoke=0
DISPOSITION:forced=0
DISPOSITION:hearing_impaired=0
DISPOSITION:visual_impaired=0
DISPOSITION:clean_effects=0
DISPOSITION:attached_pic=0
TAG:creation_time=2014-09-01 19:26:29
TAG:language=und
TAG:handler_name=GPAC ISO Hint Handler
[/STREAM]
[FORMAT]
nb_streams=4
nb_programs=0
format_name=mov,mp4,m4a,3gp,3g2,mj2
format_long_name=QuickTime / MOV
start_time=0.000000
duration=652.842000
size=50429175
bit_rate=617964
probe_score=100
TAG:major_brand=isom
TAG:minor_version=512
TAG:compatible_brands=isomiso2avc1mp41
TAG:creation_time=1970-01-01 00:00:00
TAG:encoder=Lavf53.5.0
[/FORMAT]
Dato: 9/3/2014
Bruker: bateau69
Størrelse:426 x 238
Utsikt:162,000+ views
Kvalitet:238P
Varighet:10:52
Kategorier: cumshots ansiktsbehandling foot fetish
Koder: cumshot porn videoer samling cumshot ansikts-porno videoer & handjob footjob del
speil: 1

Kommentar

Johnny Fender - pornstar av timen
se video
se bilder